Jump to content

pierrot32

Membres
  • Content Count

    4
  • Joined

  • Last visited

A propos de pierrot32

  • Rank
    Membre Nouvelle bobine

Recent Profile Visitors

The recent visitors block is disabled and is not being shown to other users.

  1. bonjour tous je voudrais apporter quelques précisions. Le phénomène de disparition du commentaire se produit rarement mais de façon inexplicable. je l'ai constaté la première fois lors d'une séance publique de projection dans une grande salle en utilisant l'installation de la salle. La projection concernait un film différent de celui dont je parle aujourd'hui mais tous les essais de conversion du film dans un autre codec ont échoué. En revanche sur d'autres installations (ordinateur, télé viseur, projecteur vidéo) le son était normal et le commentaire tout à fait audible. Je précise que dans tous les cas les pistes son (son du rush, musique, commentaires) étaient stéréo avec deux canaux et le résultat de l'exportation une piste stéréo avec deux canaux. Cordialement
  2. General Complete name : G:\VOYAGES\EGYPTE\film EGYPTE.mp4 Format : MPEG-4 Codec ID : M4V (M4V /mp42/isom) File size : 9.07 GiB Duration : 43 min 48 s Overall bit rate mode : Variable Overall bit rate : 29.6 Mb/s Encoded date : UTC 2020-02-14 01:57:01 Tagged date : UTC 2020-02-14 02:21:02 TIM : 00:00:00:00 TSC : 25 TSZ : 1 Video ID : 1 Format : AVC Format/Info : Advanced Video Codec Format profile : High@L5.1 Format settings : 2 Ref Frames Format settings, CABAC : No Format settings, Reference frames : 2 frames Format settings, GOP : M=1, N=72 Codec ID : avc1 Codec ID/Info : Advanced Video Coding Duration : 43 min 48 s Bit rate : 29.5 Mb/s Width : 3 840 pixels Height : 2 160 pixels Display aspect ratio : 16:9 Frame rate mode : Constant Frame rate : 25.000 FPS Standard : PAL Color space : YUV Chroma subsampling : 4:2:0 Bit depth : 8 bits Scan type : Progressive Bits/(Pixel*Frame) : 0.142 Stream size : 9.01 GiB (99%) Language : English Encoded date : UTC 2020-02-14 01:57:01 Tagged date : UTC 2020-02-14 01:57:01 Color range : Limited Color primaries : BT.709 Transfer characteristics : BT.709 Matrix coefficients : BT.709 Codec configuration box : avcC Audio ID : 2 Format : AAC LC Format/Info : Advanced Audio Codec Low Complexity Codec ID : mp4a-40-2 Duration : 43 min 48 s Source duration : 43 min 48 s Bit rate mode : Variable Bit rate : 157 kb/s Maximum bit rate : 254 kb/s Channel(s) : 2 channels Channel layout : L R Sampling rate : 48.0 kHz Frame rate : 46.875 FPS (1024 SPF) Compression mode : Lossy Stream size : 49.3 MiB (1%) Source stream size : 49.3 MiB (1%) Language : English Encoded date : UTC 2020-02-14 01:57:01 Tagged date : UTC 2020-02-14 01:57:01 mdhd_Duration : 2628373
  3. Je suis prêt à envoyer un fichier du film en question mais je crains que ça ne serve à rien: le film passe normalement dans la plupart des cas. C'est seulement sur certains lecteurs (ordinateur, téléviseur, etc.) que je constate le phénomène que j'ai décrit. De plus, en écoutant le film ce n'est que lorsqu'on en est l'auteur qu'on peut constater ce qui manque. Mon hypothèse (très hypothétique) est que lorsque sur Premiere on exporte plusieurs sons de nature différente réunis sur une seule piste stéréo, chacune des pistes figurant sur le projet conserve son codec et qu'à la lecture le lecteur doit disposer de tous ces codecs pour reproduire l'ensemble des sons. Merci
  4. sur un montage comprenant musique, bruitage commentaire et son d'origine; le montage est exporté avec une seule piste stéréo mixant la totalité du son. Je lis ma vidéo exportée sur deux ordinateurs. Sur l'un la restitution est correcte; sur l'autre seule la musique seule est audible, le commentaire a disparu. Je constate ce phénomène de restitution partielle du son dans d'autres circonstances: projection publique ou club.. Vérification faite la piste son (unique)est en AAc et les transcriptions dans un autre format ne changent rien à cette disparition partielle du son
×
×
  • Create New...