Jump to content
Sign in to follow this  
snul022

pb pour export sur BD pour lecture platine salon

Recommended Posts

Bonjour à tous,

J'ai un souci avec mon montage, je fais toute ma préparation et lorsque j'exporte, je ne sais plus comment régler les paramètre de pinnacle 17.

Je prends la meilleur qualité et il me propose le H264 1920 x1080 50i. Je grave sur un BD 50gb.

Quand le montage est fini et gravé, celui est lisible via mon pc, mais avec le lecteur de salon impossible de lire, erreur disque.

Auriez-vous une idée de ce problème.

Ma caméra est une sony cx730 et j'ai filmé en maximun de la qualité possible.

Merci de votre aide.

Share this post


Link to post
Share on other sites

Bonjour à tous,

J'ai un souci avec mon montage, je fais toute ma préparation et lorsque j'exporte, je ne sais plus comment régler les paramètre de pinnacle 17.

Je prends la meilleur qualité et il me propose le H264 1920 x1080 50i. Je grave sur un BD 50gb.

Quand le montage est fini et gravé, celui est lisible via mon pc, mais avec le lecteur de salon impossible de lire, erreur disque.

Auriez-vous une idée de ce problème.

Ma caméra est une sony cx730 et j'ai filmé en maximun de la qualité possible.

Merci de votre aide.

Bonsoir,

Je n'utilise pas Studio 17, mais j'ai une expérience dans la réalisation de Blu-ray et je peux quand même donner quelques conseils.

1) Pourquoi commencer par des Blu-ray 50 Go (besoin pour environ 4 heures de film).

Personnellement tant que c'est possible j'évite toujours l'utilisation des "double-couche" aussi bien en Blu-ray qu'en DVD. (les double-couche posant quelques fois des problèmes sur certains lecteurs)

2) Il est recommandé de toujours graver tout projet sur un disque réinscriptible ( BD-RE pour un Blu-ray n'existe qu'en simple couche) ... si tout est correct à la lecture sur la platine de salon, c'est alors qu'on grave une 2ème fois sur un disque BD-R (enregistrable 1 fois)..

Pour cela il faut lancer la création du Blu-ray sur disque dur ... sans graver !!

Ensuite on utilise cette structure sur disque dur pour faire ces 2 gravures:

- sur BD-RE

- sur BD-R quand le résultat est bon sur BD-RE.

Dans le cas présent je connais 2 raisons qui peuvent entraîner une erreur disque:

1) l'absence du répertoire Certificate, c'est-à-dire un Blu-ray avec seulement le répertoire BDMV.

(anomalie souvent trouvée sur les lecteurs de salon Sony).

2) Un débit "trop élevé" pour ce lecteur si le film n'est pas assez long mais que Studio 17 remplisse quand même un Blu-ray de 50 Go.

Pour essayer de comprendre, il faut utiliser l'utilitaire "MediaInfo" (gratuit sur Internet) et trouver les caractéristiques du gros fichier principal 00000.m2ts qui se trouve dans le répertoire BDMV/STREAM.

Pour avoir les détails avec MediaInfo, après chargement du fichier, il faut sélectionner l'option:

Debug / Detail - 5

Share this post


Link to post
Share on other sites

bonsoir,

J'ai bien suivi tes recommandations avec le BD-RE, quand je lance mon montage via pc aucun souci.

Je me demande si mon problème ne viandait pas d'une petite animation que je mets au début de mes vidéos, c'est une nouvelle création que je viens d'utiliser pour la première fois.

Cette vidéo d'animation est un fichier MP4 en 1920 x 1080 25 trames/sec

Y aurait-il une config pour le lecteur de salon (home cinéma LG) préférable: 50i ou 50p

Merci pour l'aide.

Voici le rapport du test avec medialnfo:

General
ID : 1 (0x1)
Complete name : G:\temp\opale 2 nouveau projet opale(2).disc - opale 2 nouveau projet opale(2).disc\BDMV\STREAM\00000.m2ts
Format : BDAV
Format/Info : Blu-ray Video
File size : 30.0 GiB
Duration : 1h 46mn
Overall bit rate mode : Variable
Overall bit rate : 40.2 Mbps
Maximum Overall bit rate : 41.2 Mbps
Video
ID : 4113 (0x1011)
Menu ID : 1 (0x1)
Format : AVC
Format/Info : Advanced Video Codec
Format profile : High@L4.1
Format settings, CABAC : Yes
Format settings, ReFrames : 2 frames
Format settings, GOP : M=2, N=15
Codec ID : 27
Duration : 1h 46mn
Bit rate mode : Variable
Bit rate : 38.2 Mbps
Maximum bit rate : 40.0 Mbps
Width : 1 920 pixels
Height : 1 080 pixels
Display aspect ratio : 16:9
Frame rate : 25.000 fps
Color space : YUV
Chroma subsampling : 4:2:0
Bit depth : 8 bits
Scan type : Interlaced
Scan order : Top Field First
Bits/(Pixel*Frame) : 0.736
Stream size : 28.4 GiB (95%)
Audio
ID : 4352 (0x1100)
Menu ID : 1 (0x1)
Format : AC-3
Format/Info : Audio Coding 3
Mode extension : CM (complete main)
Format settings, Endianness : Big
Codec ID : 129
Duration : 1h 46mn
Bit rate mode : Constant
Bit rate : 448 Kbps
Channel(s) : 6 channels
Channel positions : Front: L C R, Side: L R, LFE
Sampling rate : 48.0 KHz
Bit depth : 16 bits
Compression mode : Lossy
Stream size : 342 MiB (1%)

Share this post


Link to post
Share on other sites

Join the conversation

You can post now and register later. If you have an account, sign in now to post with your account.

Guest
Reply to this topic...

×   Pasted as rich text.   Paste as plain text instead

  Only 75 emoji are allowed.

×   Your link has been automatically embedded.   Display as a link instead

×   Your previous content has been restored.   Clear editor

×   You cannot paste images directly. Upload or insert images from URL.

Sign in to follow this  

×
×
  • Create New...